签到领BT币 我们的使命是收集全网所有电影电视剧-请大家收藏BT吧

种子下载

剧情简介

General
Complete name                  : 珍珠港.Pearl Harbor.2001.1080p.H264.AC3.English.CHS&ENG-[BTBA]\珍珠港.Pearl Harbor.2001.1080p.H264.AC3.English.CHS&ENG-[BTBA].mp4
Format                         : MPEG-4
Format profile                 : Base Media
Codec ID                       : isom (isom)
File size                      : 4.53 GiB
Duration                       : 3 h 3 min
Overall bit rate               : 3 540 kb/s
Encoded date                   : UTC 2022-07-28 11:52:36
Tagged date                    : UTC 2022-07-28 11:52:36

Video
ID                             : 1
Format                         : AVC
Format/Info                    : Advanced Video Codec
Format profile                 : High@L4
Format settings                : CABAC / 4 Ref Frames
Format settings, CABAC         : Yes
Format settings, Reference fra : 4 frames
Codec ID                       : avc1
Codec ID/Info                  : Advanced Video Coding
Duration                       : 3 h 3 min
Bit rate                       : 2 898 kb/s
Maximum bit rate               : 18.6 Mb/s
Width                          : 1 918 pixels
Height                         : 804 pixels
Display aspect ratio           : 2.40:1
Frame rate mode                : Constant
Frame rate                     : 23.976 (24000/1001) FPS
Color space                    : YUV
Chroma subsampling             : 4:2:0
Bit depth                      : 8 bits
Scan type                      : Progressive
Bits/(Pixel*Frame)             : 0.078
Stream size                    : 3.71 GiB (82%)
Writing library                : x264 core 157 r2969 d4099dd
Encoding settings              : cabac=1 / ref=3 / deblock=1:0:0 / analyse=0x3:0x113 / me=hex / subme=7 / psy=1 / psy_rd=1.00:0.00 / mixed_ref=1 / me_range=16 / chroma_me=1 / trellis=1 / 8x8dct=1 / cqm=0 / deadzone=21,11 / fast_pskip=1 / chroma_qp_offset=-2 / threads=25 / lookahead_threads=4 / sliced_threads=0 / nr=0 / decimate=1 / interlaced=0 / bluray_compat=0 / constrained_intra=0 / bframes=3 / b_pyramid=2 / b_adapt=1 / b_bias=0 / direct=1 / weightb=1 / open_gop=0 / weightp=2 / keyint=240 / keyint_min=23 / scenecut=40 / intra_refresh=0 / rc_lookahead=40 / rc=crf / mbtree=1 / crf=26.0 / qcomp=0.60 / qpmin=0 / qpmax=69 / qpstep=4 / ip_ratio=1.40 / aq=1:1.00
Encoded date                   : UTC 2022-07-28 10:40:35
Tagged date                    : UTC 2022-07-28 11:52:45
Codec configuration box        : avcC

Audio
ID                             : 2
Format                         : AC-3
Format/Info                    : Audio Coding 3
Commercial name                : Dolby Digital
Codec ID                       : ac-3
Duration                       : 3 h 3 min
Bit rate mode                  : Constant
Bit rate                       : 640 kb/s
Maximum bit rate               : 676 kb/s
Channel(s)                     : 6 channels
Channel layout                 : L R C LFE Ls Rs
Sampling rate                  : 48.0 kHz
Frame rate                     : 31.250 FPS (1536 SPF)
Compression mode               : Lossy
Stream size                    : 838 MiB (18%)
Title                          : www.btba.com.cn
Language                       : English
Service kind                   : Complete Main
Encoded date                   : UTC 2022-07-28 11:52:42
Tagged date                    : UTC 2022-07-28 11:52:45

珍珠港/Pearl Harbor珍珠港/Pearl Harbor珍珠港/Pearl Harbor珍珠港/Pearl Harbor 雷夫(本•阿弗莱特)和丹尼(乔什•哈奈特)是一对自小玩在一起的好兄弟,两人对飞行都有很大兴趣,曾一起学习过驾驶飞机,二战初期,两人又一起加入了美国空军部队。受训期间,雷夫与军中医院里的女护士伊弗琳(凯特•贝金赛尔)坠入爱河。 为协助欧洲各国抵抗纳粹德国的侵略,美军决定派出精英部队前往欧洲大陆,雷夫自告奋勇前往参战,并将伊弗琳托付给丹尼照顾,不久,噩耗传来,雷夫的飞机在空战中不幸被德军击落,生还可能几乎为零。伊弗琳与丹尼在相互勉励的伤痛中,萌生爱情。令他们没想到的是,雷夫并没死去,当三人重聚首时,尴尬顿生。日军偷袭珍珠港一事帮他们解了围,雷夫与丹尼决定不做情敌做战友。

网友评论

Copyright © 2014-2021 www.aibtba.com All Rights Reserved. BTBA 版权所有. BTBA提供的BT文件均来源于互联网搜索引擎抓取,只供网友学习交流、技术提升使用。BTBA不提供任何文件形式的资源存储,也不参与制作、上传;我们遵守BitTorrent点对点协议原则,任何版权问题请联系原资源发布商!如有任何问题请联系邮箱:ibtba.cc*.com*gmail.com (*.com*替换成@)